Dark Shadows 2012 TS XviD-26k
Hello Visitor • Register now • Log in
Thursday, 17.4.2014
Home page » Downloads » Movies/Videos » Comedy
This will not require a BitTorrent Client (1.37 GiB)

Views : 733
Downloads : 0
Rating : 4.3/6
Size : 1.37 GiB
Category: Comedy
Uploaded by: kirilvel
Dark Shadows 2012 TS XviD-26k
08.06.2012, 4:16:38 PM


Plot: 

An imprisoned vampire, Barnabas Collins, is set free and returns to his 
ancestral home, where his dysfunctional 
descendants are in need of his protection. 

Format : AVI 
Format/Info : Audio Video Interleave 
File size : 1.37 GiB 
Duration : 1h 48mn 
Overall bit rate : 1 815 Kbps 
Writing application : VirtualDubMod 1.5.10.3 | www.virtualdub-fr.org || (build 2550/release) 
Writing library : VirtualDub build 32839/release 

Video 
ID : 0 
Format : MPEG-4 Visual 
Format profile : Advanced Simple@L5 
Format settings, BVOP : 2 
Format settings, QPel : No 
Format settings, GMC : No warppoints 
Format settings, Matrix : Default (H.263) 
Muxing mode : Packed bitstream 
Codec ID : XVID 
Codec ID/Hint : XviD 
Duration : 1h 48mn 
Bit rate : 1 675 Kbps 
Width : 720 pixels 
Height : 320 pixels 
Display aspect ratio : 2.25:1 
Frame rate : 29.970 fps 
Color space : YUV 
Chroma subsampling : 4:2:0 
Bit depth : 8 bits 
Scan type : Progressive 
Compression mode : Lossy 
Bits/(Pixel*Frame) : 0.243 
Stream size : 1.27 GiB (92%) 
Writing library : XviD 1.2.1 (UTC 2008-12-04) 

Audio 
ID : 1 
Format : MPEG Audio 
Format version : Version 1 
Format profile : Layer 3 
Mode : Joint stereo 
Mode extension : MS Stereo 
Codec ID : 55 
Codec ID/Hint : MP3 
Duration : 1h 48mn 
Bit rate mode : Constant 
Bit rate : 128 Kbps 
Channel(s) : 2 channels 
Sampling rate : 48.0 KHz 
Compression mode : Lossy 
Stream size : 99.1 MiB (7%) 
Alignment : Split accross interleaves 
Interleave, duration : 33 ms (1.00 video frame) 
Interleave, preload duration : 500 ms 

Screens 




This will not require a BitTorrent Client (1.37 GiB)

Tags: XViD-26K, Shadows, ts, comedy, Dark, 2012
Total comments: 0
Only registered users can add comments.
[ Registration | Login ]
Share


Unfamiliar with English?

Authorization

Login:
Password: